#TITLE:Feel the Bass;
#SUBTITLE:;
#ARTIST:Gammer;
#TITLETRANSLIT:;
#SUBTITLETRANSLIT:;
#ARTISTTRANSLIT:;
#CREDIT:;
#BANNER:ftbbn.png;
#BACKGROUND:ftbbg.png;
#LYRICSPATH:;
#CDTITLE:cdtitle.PNG;
#MUSIC:Gammer - Feel the Bass.mp3;
#OFFSET:-0.210;
#SAMPLESTART:33.747;
#SAMPLELENGTH:12.000;
#SELECTABLE:YES;
#BPMS:0.000=175.425;
#STOPS:;
#BGCHANGES:;
// cache tags:
#FIRSTBEAT:0.000;
#LASTBEAT:356.000;
#SONGFILENAME:Songs/nhac/Feel the Bass/steps.sm;
#HASMUSIC:1;
#HASBANNER:1;
#MUSICLENGTH:121.991;
// end cache tags

//---------------dance-single - ----------------
#NOTES:
     dance-single:
     :
     Hard:
     12:
     1.000,1.000,1.000,0.008,1.000,804.000,282.000,1.000,0.000,0.000:

1100
0000
0100
0000
0011
0100
0000
0010
1001
0100
0000
0000
0101
0000
0000
0000
,
1100
0000
0100
0000
0011
0100
0000
0010
1001
0100
0000
0000
0101
0000
0000
0000
,
1100
0000
0100
0000
0011
0100
0000
0010
1001
0100
0000
0000
0101
0000
0000
0000
,
1100
0000
0100
0000
0011
0100
0000
0010
1001
0100
0000
0000
0101
0000
0000
0000
,
0101
0000
0001
0000
1010
0001
0000
1000
0110
0001
0000
0000
0011
0000
0000
0000
,
1010
0000
1000
0000
0101
1000
0000
0001
0110
1000
0000
0000
1100
0000
0000
0000
,
1100
0000
1100
0000
1010
0000
1010
0000
0100
0010
0100
0010
0100
0001
0100
0001
,
0010
0000
0000
0000
0000
0000
0000
0000
0100
0000
0000
0000
0000
0000
0000
0000
0010
0000
0000
0000
0000
0000
0000
0000
0100
0000
0000
0000
0000
0000
0000
0000
0010
0000
0000
0000
0000
0000
0000
0000
0100
0000
0000
0000
0000
0000
0000
0000
0010
0000
0000
0000
0000
0000
0000
0000
0100
0000
0000
0000
0000
0000
0000
0000
0010
0000
0000
0000
0000
0000
0000
0000
0001
0000
0000
0000
0000
0000
1000
0000
0000
0000
0000
0000
0001
0000
0000
0000
0000
0000
1000
0000
0000
0000
0000
0000
0001
0000
0000
0000
0000
0000
1000
0000
0000
0000
0000
0000
0001
0000
0000
0000
0000
0000
1000
0000
0000
0000
0000
0000
0001
0000
0000
0000
0000
0000
1000
0000
0000
0000
0000
0000
0001
0000
0000
0000
0000
0000
1000
0000
0000
0000
0000
0000
0110
0000
0000
0000
0000
0000
0000
0000
0000
0000
0000
0000
0000
0000
0000
0000
0000
0000
0000
0000
0000
0000
0000
0000
0000
0000
0000
0000
0000
0000
0000
0000
0000
0000
0000
0000
0000
0000
0000
0000
0000
0000
0000
0000
0000
0000
0000
0000
,
0110
1100
0110
0001
1010
0001
1010
0001
,
0110
0000
0000
1100
0000
0000
0110
0000
0000
0001
0000
0000
1010
0000
0000
0001
0010
0001
1010
0000
0000
0001
0000
0000
,
0110
1100
0110
0001
1010
0001
1010
0001
,
0110
0000
0000
0000
0000
0000
0000
0000
0000
0000
0000
0000
0000
0000
0000
0000
0000
0000
0000
0000
0000
0000
0000
0000
1100
0000
0000
0000
0000
0000
0000
0000
0000
0000
0000
0000
0000
0000
0000
0000
0000
0000
0000
0000
0000
0000
0000
0000
0001
0000
0000
0000
0000
0000
0000
0000
0000
0000
0000
0000
1000
0000
0000
0000
0000
0000
0000
0000
0000
0000
0000
0000
0001
0000
0000
0000
0000
0000
0000
0000
0000
0000
0000
0000
1000
0000
0000
0000
0000
0000
0000
0000
0000
0000
0000
0000
0010
0000
0000
0000
0000
0000
0000
0000
0001
0000
0000
0000
0000
0000
0000
0000
0010
0000
0000
0000
0000
0000
0000
0000
0001
0000
0000
0000
0000
0000
0000
0000
0010
0000
0000
0000
0000
0000
0000
0000
0001
0000
0000
0000
0000
0000
0000
0000
0010
0000
0000
0000
0000
0000
0100
0000
0000
0000
0000
0000
0010
0000
0000
0000
0000
0000
0100
0000
0000
0000
0000
0000
0010
0000
0000
0000
0000
0000
0100
0000
0000
0000
0000
0000
0010
0000
0000
0000
0000
0000
0100
0000
0000
0000
0000
0000
,
1001
0101
1001
0010
1100
0010
1100
0010
,
1001
0000
0000
0101
0000
0000
1001
0000
0000
0010
0000
0000
1100
0000
0000
0010
1000
0010
1100
0000
0000
0010
0000
0000
,
1001
0000
0000
0101
0000
0000
1001
0000
0000
0010
0000
0000
1100
0000
0000
0010
0000
0000
1000
0100
1000
0010
0000
0000
,
1100
0000
0000
0000
0010
0000
0000
0000
0001
0010
0100
1000
0011
0000
0000
0000
0010
0000
0000
0000
0100
0000
1000
0000
0001
0010
0100
1000
0001
0010
0100
1000
,
1001
1010
1001
0100
0011
0100
0011
0100
,
1001
0000
0000
1010
0000
0000
1001
0000
0000
0100
0000
0000
0011
0000
0000
0100
0001
0100
0011
0000
0000
0100
0000
0000
,
1001
1010
1001
0100
0011
0100
0011
0100
,
1001
0000
0000
0000
0000
0000
0000
0000
0000
0000
0000
0000
0000
0000
0000
0000
0000
0000
0000
0000
0000
0000
0000
0000
1010
0000
0000
0000
0000
0000
0000
0000
0000
0000
0000
0000
0000
0000
0000
0000
0000
0000
0000
0000
0000
0000
0000
0000
0100
0000
0000
0000
0000
0000
0000
0000
0000
0000
0000
0000
0010
0000
0000
0000
0000
0000
0000
0000
0000
0000
0000
0000
0100
0000
0000
0000
0000
0000
0000
0000
0000
0000
0000
0000
0010
0000
0000
0000
0000
0000
0000
0000
0000
0000
0000
0000
0001
0000
0000
0000
0000
0000
0000
0000
0100
0000
0000
0000
0000
0000
0000
0000
0001
0000
0000
0000
0000
0000
0000
0000
0100
0000
0000
0000
0000
0000
0000
0000
0001
0000
0000
0000
0000
0000
0000
0000
0100
0000
0000
0000
0000
0000
0000
0000
0001
0000
0000
0000
0000
0000
1000
0000
0000
0000
0000
0000
0001
0000
0000
0000
0000
0000
1000
0000
0000
0000
0000
0000
0001
0000
0000
0000
0000
0000
1000
0000
0000
0000
0000
0000
0001
0000
0000
0000
0000
0000
1000
0000
0000
0000
0000
0000
,
0110
0011
0110
1000
0101
1000
0101
1000
,
0110
0000
0000
0011
0000
0000
0110
0000
0000
1000
0000
0000
0101
0000
0000
1000
0100
1000
0101
0000
0000
1000
0000
0000
,
0110
0000
0000
0000
0011
0000
0000
0000
0110
0000
0000
0000
1000
0000
0000
0000
0101
0000
0000
0000
1000
0000
0000
0000
0100
0001
0100
0001
0110
0000
0000
0000
,
1010
0000
0000
0000
0110
0000
0000
0000
1000
0000
0000
0000
0110
0000
0000
0000
0001
0100
0001
0100
0001
0100
0001
0100
0011
0000
0000
0000
0000
0000
0000
0000
,
1100
0000
0000
0100
0000
0000
1000
0000
0000
0000
0010
0000
0000
0000
0100
0000
,
1000
0000
0000
0100
0000
0000
1000
0000
0000
0000
0010
0000
0000
0000
0100
0000
,
0001
0000
0000
0100
0000
0000
0001
0000
0000
0000
0010
0000
0000
0000
0100
0000
,
1000
0000
0000
0001
0000
0000
0010
0000
0100
0000
1000
0000
0100
0000
0010
0000
,
1000
0000
0000
0100
0000
0000
1000
0000
0000
0000
0010
0000
0000
0000
0100
0000
,
1000
0000
0000
0100
0000
0000
1000
0000
0000
0000
0010
0000
0000
0000
0100
0000
,
0001
0000
0000
0100
0000
0000
0001
0000
0000
0000
0010
0000
0000
0000
0100
0000
,
1100
0000
0000
0000
1000
0001
0110
0000
1100
0000
0000
0000
0000
0000
0110
0000
,
1001
0000
0000
0100
0000
0000
1000
0000
0000
0000
0010
0000
0000
0000
0100
0000
,
1000
0000
0000
0100
0000
0000
1000
0000
0000
0000
0010
0000
0000
0000
0100
0000
,
0001
0000
0000
0100
0000
0000
0001
0000
0000
0000
0010
0000
0000
0000
0100
0000
,
1000
0000
0000
0001
0000
0000
0010
0000
0100
0000
1000
0000
0100
0000
0010
0000
,
1000
0000
0000
0100
0000
0000
1000
0000
0000
0000
0010
0000
0000
0000
0100
0000
,
1000
0000
0000
0100
0000
0000
1000
0000
0000
0000
0010
0000
0000
0000
0100
0000
,
0001
0000
0000
0100
0000
0000
0001
0000
0000
0000
0010
0000
0000
0000
0100
0000
,
1100
0000
0000
0000
1100
0000
0000
0000
1100
0000
0000
0000
0100
0010
0100
0010
,
1100
0000
0000
0000
0000
0000
0000
1010
,
0110
0000
0000
0010
0000
0000
0001
0000
1000
0000
0000
0000
1000
0000
0001
0000
,
0010
0100
0000
1000
0000
0000
0100
0000
0001
0000
0010
0000
0100
0000
1000
0000
,
0100
0000
0000
0010
0000
0000
0001
0000
1000
0000
0000
0000
1000
0000
0001
0000
,
0010
0100
0000
1000
0000
0000
0100
0000
0001
0000
0100
0000
1000
0000
0010
0000
,
0110
0000
0000
0010
1100
0000
0001
0000
1010
0000
0000
0000
1100
0000
0101
0000
,
0011
0100
0000
1000
0110
0000
0100
0000
1001
0000
0010
0000
0101
0000
1010
0000
,
1100
0000
0000
0000
0000
0000
0100
0000
0000
0010
0000
0000
0100
0000
0000
0000
0000
0000
0101
0000
0000
0000
0000
0000
1100
0000
0000
0001
0000
0000
0100
0000
0000
0001
0000
0000
1100
0000
0010
0000
1000
0000
0101
0000
0010
0000
1000
0000
,
0110
0000
0000
0110
,
1001
0000
0000
1000
0101
0000
0010
0000
1100
0000
0000
0000
0101
0000
0010
0000
,
1100
0001
0000
0100
1010
0000
0001
0000
0110
0000
1000
0000
0011
0000
0100
0000
,
1001
0000
0000
1000
0101
0000
0010
0000
1100
0000
0000
0000
0101
0000
0010
0000
,
1100
0001
0000
0100
1010
0000
0001
0000
0110
0000
0001
0000
0101
0000
1000
0000
,
0110
0000
0000
0010
1100
0000
0001
0000
1010
0000
0000
0000
1100
0000
0001
0000
,
1010
0100
0000
1000
0011
0000
0100
0000
1001
0000
0010
0000
0101
0000
1000
0000
,
0110
0000
0000
0010
1100
0000
0001
0000
1010
0000
0000
0000
1100
0000
0001
0000
,
1010
0100
0000
1000
0011
0000
0100
0000
1001
0000
0100
0000
1100
0000
0010
0000
,
1001
0000
0000
0001
1010
0000
0100
0000
0011
0000
0000
0000
1010
0000
0100
0000
,
0011
1000
0000
0010
0101
0000
1000
0000
0110
0000
0001
0000
1100
0000
0010
0000
,
1001
0000
0000
0001
1010
0000
0100
0000
0011
0000
0000
0000
1010
0000
0100
0000
,
0011
1000
0000
0010
0101
0000
1000
0000
0110
0000
1000
0000
1010
0000
0001
0000
,
0110
0000
0000
0100
0011
0000
1000
0000
0101
0000
0000
0000
0011
0000
1000
0000
,
0101
0010
0000
0001
1100
0000
0010
0000
1001
0000
0100
0000
1010
0000
0001
0000
,
0110
0000
0000
0100
0011
0000
1000
0000
0101
0000
0000
0000
0011
0000
1000
0000
,
0001
0000
0000
0000
0000
0000
0000
0000
0010
0000
0000
0000
0000
0000
0000
0000
0100
0000
0000
0000
0000
0000
0000
0000
1000
0000
0000
0000
0000
0000
0000
0000
0001
0000
0000
0000
0000
0000
0000
0000
0010
0000
0000
0000
0000
0000
0000
0000
0100
0000
0000
0000
0000
0000
0000
0000
1000
0000
0000
0000
0000
0000
0000
0000
0001
0000
0000
0000
0000
0000
0000
0000
0010
0000
0000
0000
0000
0000
0100
0000
0000
0000
0000
0000
1000
0000
0000
0000
0000
0000
0001
0000
0000
0000
0000
0000
0010
0000
0000
0000
0000
0000
0100
0000
0000
0000
0000
0000
1000
0000
0000
0000
0000
0000
0001
0000
0000
0000
0000
0000
0010
0000
0000
0000
0000
0000
0100
0000
0000
0000
0000
0000
1000
0000
0000
0000
0000
0000
0001
0000
0000
0000
0000
0000
0000
0000
0000
0000
0000
0000
0000
0000
0000
0000
0000
0000
0000
0000
0000
0000
0000
0000
0000
0000
0000
0000
0000
0000
0000
0000
0000
0000
0000
0000
0000
0000
0000
0000
0000
0000
0000
0000
0000
0000
0000
0000
0000
0000
0000
0000
0000
0000
,
0110
0001
1100
0000
0110
0000
0001
0000
1010
0000
0001
0000
1010
0000
0001
0000
,
0110
0000
0000
0001
0000
0000
1100
0000
0000
0000
0000
0000
0110
0000
0000
0000
0000
0000
0001
0000
0000
0000
0000
0000
1010
0000
0000
0000
0000
0000
0001
0000
0010
0000
0001
0000
1010
0000
0000
0000
0000
0000
0001
0000
0000
0000
0000
0000
,
0110
0001
1100
0000
0110
0000
0001
0000
1010
0000
0001
0000
1010
0000
0001
0000
,
0110
0000
0000
0000
0000
0000
0000
0000
0000
0000
0000
0000
0001
0000
0000
0000
0000
0000
0000
0000
0000
0000
0000
0000
1100
0000
0000
0000
0000
0000
0000
0000
0000
0000
0000
0000
0000
0000
0000
0000
0000
0000
0000
0000
0000
0000
0000
0000
0001
0000
0000
0000
0000
0000
0000
0000
0000
0000
0000
0000
1000
0000
0000
0000
0000
0000
0000
0000
0000
0000
0000
0000
0001
0000
0000
0000
0000
0000
0000
0000
0000
0000
0000
0000
1000
0000
0000
0000
0000
0000
0000
0000
0000
0000
0000
0000
0010
0000
0000
0000
0000
0000
0000
0000
0001
0000
0000
0000
0000
0000
0000
0000
0010
0000
0000
0000
0000
0000
0000
0000
0001
0000
0000
0000
0000
0000
0000
0000
0010
0000
0000
0000
0000
0000
0000
0000
0001
0000
0000
0000
0000
0000
0000
0000
0010
0000
0000
0000
0000
0000
0100
0000
0000
0000
0000
0000
0010
0000
0000
0000
0000
0000
0100
0000
0000
0000
0000
0000
0010
0000
0000
0000
0000
0000
0100
0000
0000
0000
0000
0000
0010
0000
0000
0000
0000
0000
0100
0000
0000
0000
0000
0000
,
1001
0010
0101
0000
1001
0000
0010
0000
1100
0000
0010
0000
1100
0000
0010
0000
,
1001
0000
0000
0010
0000
0000
0101
0000
0000
0000
0000
0000
1001
0000
0000
0000
0000
0000
0010
0000
0000
0000
0000
0000
1100
0000
0000
0000
0000
0000
0010
0000
1000
0000
0010
0000
1100
0000
0000
0000
0000
0000
0010
0000
0000
0000
0000
0000
,
1001
0000
0000
0010
0000
0000
0101
0000
0000
0000
0000
0000
1001
0000
0000
0000
0000
0000
0010
0000
0000
0000
0000
0000
1100
0000
0000
0000
0000
0000
0010
0000
0000
0000
0000
0000
1000
0000
0100
0000
1000
0000
0010
0000
0000
0000
0000
0000
,
1100
0000
0001
0000
0010
0000
0000
0000
0001
0010
0100
1000
0011
0000
0000
0000
0010
0000
0000
0000
0100
0000
1000
0000
0001
0010
0100
1000
0001
0010
0100
1000
,
1001
0100
1010
0000
1001
0000
0100
0000
0011
0000
0100
0000
0011
0000
0100
0000
,
1001
0000
0000
0100
0000
0000
1010
0000
0000
0000
0000
0000
1001
0000
0000
0000
0000
0000
0100
0000
0000
0000
0000
0000
0011
0000
0000
0000
0000
0000
0100
0000
0001
0000
0100
0000
0011
0000
0000
0000
0000
0000
0100
0000
0000
0000
0000
0000
,
1001
0100
1010
0000
1001
0000
0100
0000
0011
0000
0100
0000
0011
0000
0100
0000
,
1001
0000
0000
0000
0000
0000
0000
0000
0000
0000
0000
0000
0100
0000
0000
0000
0000
0000
0000
0000
0000
0000
0000
0000
1010
0000
0000
0000
0000
0000
0000
0000
0000
0000
0000
0000
0000
0000
0000
0000
0000
0000
0000
0000
0000
0000
0000
0000
0100
0000
0000
0000
0000
0000
0000
0000
0000
0000
0000
0000
0010
0000
0000
0000
0000
0000
0000
0000
0000
0000
0000
0000
0100
0000
0000
0000
0000
0000
0000
0000
0000
0000
0000
0000
0010
0000
0000
0000
0000
0000
0000
0000
0000
0000
0000
0000
0001
0000
0000
0000
0000
0000
0000
0000
0100
0000
0000
0000
0000
0000
0000
0000
0001
0000
0000
0000
0000
0000
0000
0000
0100
0000
0000
0000
0000
0000
0000
0000
0001
0000
0000
0000
0000
0000
0000
0000
0100
0000
0000
0000
0000
0000
0000
0000
0001
0000
0000
0000
0000
0000
1000
0000
0000
0000
0000
0000
0001
0000
0000
0000
0000
0000
1000
0000
0000
0000
0000
0000
0001
0000
0000
0000
0000
0000
1000
0000
0000
0000
0000
0000
0001
0000
0000
0000
0000
0000
1000
0000
0000
0000
0000
0000
,
0110
1000
0011
0000
0110
0000
1000
0000
0101
0000
1000
0000
0101
0000
1000
0000
,
0110
0000
0000
1000
0000
0000
0011
0000
0000
0000
0000
0000
0110
0000
0000
0000
0000
0000
1000
0000
0000
0000
0000
0000
0101
0000
0000
0000
0000
0000
1000
0000
0100
0000
1000
0000
0101
0000
0000
0000
0000
0000
1000
0000
0000
0000
0000
0000
,
0110
0000
1000
0000
0011
0000
0000
0000
0110
0000
0000
0000
1000
0000
0000
0000
0101
0000
0000
0000
1000
0000
0000
0000
0100
0001
0100
0001
0110
0000
0000
0000
,
1000
0000
0000
0000
0010
0000
0000
0000
0000
0000
0000
0000
0100
0000
0000
0000
0001
0100
0001
0100
0001
0100
0001
0100
0011
0000
0000
0000
0011
0000
0000
0000
,
0011
0000
0010
0000
1100
0010
0000
0100
1001
0010
0000
0000
1010
0000
0000
0000
,
0011
0000
0010
0000
1100
0010
0000
0100
1001
0010
0000
0000
1010
0000
0000
0000
,
0011
0000
0010
0000
1100
0010
0000
0100
1001
0010
0000
0000
1010
0000
0000
0000
,
0011
0000
0010
0000
1100
0010
0000
0100
1001
0010
0000
0000
1010
0000
0000
0000
,
0101
0000
0001
0000
1010
0001
0000
1000
0110
0001
0000
0000
0011
0000
0000
0000
,
0101
0000
0001
0000
1010
0001
0000
1000
0110
0001
0000
0000
0011
0000
0000
0000
,
0101
0000
0001
0000
1010
0001
0000
1000
0110
0001
0000
0000
0011
0000
0000
0000
,
0020
0000
0000
0000
,
0030
0000
0000
0000
;
